<?xml version="1.0" standalone="no"?>
<!DOCTYPE svg PUBLIC "-//W3C//DTD SVG 1.1//EN" "http://www.w3.org/Graphics/SVG/1.1/DTD/svg11.dtd" >
<svg>
<metadata>
Created by FontForge 20090622 at Fri Sep  4 04:11:00 2015
 By deploy user
Created by Kurt Otto with FontForge 2.0 (http://fontforge.sf.net)
</metadata>
<defs>
<font id="DRC-Icons" horiz-adv-x="1024" >
  <font-face 
    font-family="DRC-Icons"
    font-weight="500"
    font-stretch="normal"
    units-per-em="1024"
    panose-1="2 0 5 9 0 0 0 0 0 0"
    ascent="819"
    descent="-205"
    x-height="819"
    cap-height="819"
    bbox="0 -205 1024 822"
    underline-thickness="51"
    underline-position="-103"
    unicode-range="U+0041-U+0077"
  />
<missing-glyph 
d="M34 0v682h272v-682h-272zM68 34h204v614h-204v-614z" />
    <glyph glyph-name=".notdef" 
d="M34 0v682h272v-682h-272zM68 34h204v614h-204v-614z" />
    <glyph glyph-name=".null" horiz-adv-x="0" 
 />
    <glyph glyph-name="nonmarkingreturn" 
 />
    <glyph glyph-name="A" unicode="A" 
d="M656 544l92 -92l-506 -507l-93 92zM864 819q-9 0 -27 -2q-13 -1 -25 -6q-16 -6 -23 -10t-21 -14l-64 -64l224 -223l64 63q5 7 13 21q4 7 10 23q5 12 6 25q2 18 2 27q0 33 -12 62t-34 51t-50 34q-31 13 -63 13v0zM656 675l-592 -591l-63 -288l287 64l592 592z" />
    <glyph glyph-name="F" unicode="F" 
d="M513 726q90 0 168 -27q79 -27 135 -73q54 -44 85 -103q29 -54 29 -119q0 -64 -29 -118q-32 -61 -85 -104q-56 -46 -135 -73q-78 -27 -168 -27h-16q-3 0 -10 0.5t-10 0.5q-10 0 -15 1q-4 0 -10 1t-10 1l-44 5l-31 -31q-34 -34 -66 -52l-11.5 -6l-11.5 -6q7 25 7 57v7
q0 13 -1 20v1q0 1 -0.5 3t-0.5 3v1q-1 2 -2 8t-2 8l-8 35l-30 20q-36 25 -63 52q-29 29 -46 59q-19 31 -29 65q-9 33 -9 69q0 64 29 118q32 61 85 104q56 46 135 73q78 27 168 27h2zM513 819h-1q-110 0 -200 -32q-95 -34 -162 -89q-70 -57 -109 -132q-40 -76 -40 -162
q0 -50 13 -95q12 -43 38 -86q24 -40 59 -77q33 -35 78 -64q2 -6 2 -8q0 -1 0.5 -3.5t0.5 -3.5v-7v-7q0 -28 -10 -51q-11 -25 -28 -45q-14 -17 -41 -38q-19 -15 -49 -31v-27q53 2 96 7q54 7 95 20q50 16 92 40q46 26 86 66q3 0 10 -1t10 -1q7 -1 20 -1q3 0 10 -0.5t10 -0.5
t9 -0.5t10 -0.5q110 0 200 32q95 34 162 89q70 57 109 132q40 76 40 162t-40 162q-39 75 -109 132q-67 55 -162 89q-90 32 -199 32z" />
    <glyph glyph-name="N" unicode="N" 
d="M656 544l92 -92l-506 -507l-93 92zM864 819q-9 0 -27 -2q-13 -1 -25 -6q-16 -6 -23 -10t-21 -14l-64 -64l224 -223l64 63q5 7 13 21q4 7 10 23q5 12 6 25q2 18 2 27q0 33 -12 62t-34 51t-50 34q-31 13 -63 13v0zM656 675l-592 -591l-63 -288l287 64l592 592z" />
    <glyph glyph-name="P" unicode="P" 
d="M486 817q-10 -5 -21 -16l-275 -275h-182v-438h182l275 -275q9 -9 21 -15q9 -4 17 -1q7 3 12 12q4 8 4 26v945q0 17 -4 25q-5 10 -12 13q-8 3 -17 -1zM636 45l-2 1q8 0 11 1q8 3 10 4q1 1 5 2.5t5 2.5q6 4 9 7q50 49 75 114q25 63 25 131t-25 131q-25 65 -75 114
q-8 7 -18 12q-9 4 -21 4q-11 0 -20 -4q-12 -5 -19 -12t-12 -19q-4 -9 -4 -20q0 -12 4 -21q4 -11 12 -18q36 -36 52 -78q17 -45 17 -90q0 -44 -17 -89q-16 -42 -52 -78q-7 -7 -12 -19q-4 -9 -4 -20q0 -12 4 -21q4 -10 12 -18q1 -1 10 -7l5 -2.5t4 -2.5t11 -4q3 -1 10 -1z
M834 -58l-3 -1q8 0 11 1q10 3 11 4t4 2.5l5 2.5q6 4 9 7q37 37 63 76q28 41 45 85q20 51 28 92q9 48 9 96q0 49 -9 97q-8 41 -28 92q-17 44 -45 85q-26 39 -63 76q-7 7 -18 12q-9 4 -20 4q-12 0 -21 -4q-10 -5 -18 -12q-7 -7 -12 -19q-4 -9 -4 -20q0 -12 4 -21q4 -11 12 -18
q55 -55 84 -127q28 -69 28 -144t-28 -144q-29 -72 -84 -127q-8 -7 -12 -18q-4 -9 -4 -21q0 -11 4 -20q5 -12 12 -19q3 -3 9 -7q1 -1 5 -2.5t5 -2.5q2 -1 10 -4q3 -1 11 -1z" />
    <glyph glyph-name="R" unicode="R" 
d="M896 691v-831h-672q-20 0 -37 7t-31 21q-13 13 -20 30q-8 19 -8 38q0 18 8 37t20 31t31 20t37 8h608v767h-640q-26 0 -49 -10q-25 -11 -41 -27q-18 -18 -28 -41t-10 -50v-767q0 -27 10 -50t28 -41q16 -16 41 -27q23 -10 49 -10h768v895h-64zM256 -76h576v64h-576v-64z
M960 -204z" />
    <glyph glyph-name="S" unicode="S" 
d="M486 817q-10 -5 -21 -16l-275 -275h-182v-438h182l275 -275q9 -9 21 -15q9 -4 17 -1q7 3 12 12q4 8 4 26v945q0 17 -4 25q-5 10 -12 13q-8 3 -17 -1zM636 45l-2 1q8 0 11 1q8 3 10 4q1 1 5 2.5t5 2.5q6 4 9 7q50 49 75 114q25 63 25 131t-25 131q-25 65 -75 114
q-8 7 -18 12q-9 4 -21 4q-11 0 -20 -4q-12 -5 -19 -12t-12 -19q-4 -9 -4 -20q0 -12 4 -21q4 -11 12 -18q36 -36 52 -78q17 -45 17 -90q0 -44 -17 -89q-16 -42 -52 -78q-7 -7 -12 -19q-4 -9 -4 -20q0 -12 4 -21q4 -10 12 -18q1 -1 10 -7l5 -2.5t4 -2.5t11 -4q3 -1 10 -1z
M834 -58l-3 -1q8 0 11 1q10 3 11 4t4 2.5l5 2.5q6 4 9 7q37 37 63 76q28 41 45 85q20 51 28 92q9 48 9 96q0 49 -9 97q-8 41 -28 92q-17 44 -45 85q-26 39 -63 76q-7 7 -18 12q-9 4 -20 4q-12 0 -21 -4q-10 -5 -18 -12q-7 -7 -12 -19q-4 -9 -4 -20q0 -12 4 -21q4 -11 12 -18
q55 -55 84 -127q28 -69 28 -144t-28 -144q-29 -72 -84 -127q-8 -7 -12 -18q-4 -9 -4 -21q0 -11 4 -20q5 -12 12 -19q3 -3 9 -7q1 -1 5 -2.5t5 -2.5q2 -1 10 -4q3 -1 11 -1z" />
    <glyph glyph-name="U" unicode="U" 
d="M656 544l92 -92l-506 -507l-93 92zM864 819q-9 0 -27 -2q-13 -1 -25 -6q-16 -6 -23 -10t-21 -14l-64 -64l224 -223l64 63q5 7 13 21q4 7 10 23q5 12 6 25q2 18 2 27q0 33 -12 62t-34 51t-50 34q-31 13 -63 13v0zM656 675l-592 -591l-63 -288l287 64l592 592z" />
    <glyph glyph-name="V" unicode="V" 
d="M512 819q-107 0 -199 -40q-96 -42 -163 -109q-69 -69 -110 -163q-40 -92 -40 -200q0 -107 40 -199q41 -94 110 -163t163 -110q92 -40 199 -40t199 40q94 41 163 110t110 163q40 92 40 199q0 108 -40 200q-41 94 -110 163q-67 67 -163 109q-92 40 -199 40zM512 -109
q-86 0 -162 33t-132 89t-89 132q-33 77 -33 162t33 162t89 133t132 89q74 32 162 32t162 -32q76 -33 132 -89t89 -133t33 -162t-33 -162q-33 -76 -89 -132t-132 -89t-162 -33zM384 83l384 224l-384 224v-448z" />
    <glyph glyph-name="a" unicode="a" 
d="M656 544l92 -92l-506 -507l-93 92zM864 819q-9 0 -27 -2q-13 -1 -25 -6q-16 -6 -23 -10t-21 -14l-64 -64l224 -223l64 63q5 7 13 21q4 7 10 23q5 12 6 25q2 18 2 27q0 33 -12 62t-34 51t-50 34q-31 13 -63 13v0zM656 675l-592 -591l-63 -288l287 64l592 592z" />
    <glyph glyph-name="c" unicode="c" 
d="M769 -135q118 68 186 186q68 117 68 257q0 139 -68 256q-69 119 -186 187t-257 68t-257 -68t-186 -187q-68 -117 -68 -256q0 -140 68 -257q68 -118 186 -186q119 -69 257 -69t257 69zM376 172q-56 56 -56 136t56 136t136 56t136 -56t56 -136t-56 -136t-136 -56t-136 56z
M602 217q38 38 38 91q0 52 -38 90t-90 38t-90 -38t-38 -90q0 -53 38 -91q37 -37 90 -37t90 37zM467 262q-19 19 -19 46q0 26 19 45t45 19t45 -19t19 -45q0 -27 -19 -46q-18 -18 -45 -18t-45 18z" />
    <glyph glyph-name="d" unicode="d" 
d="M931 659h-838v-575h355h35h93h355v575zM1024 751v-759h-448v-63h192v-63h-512v63h192v63h-448v759h1024z" />
    <glyph glyph-name="e" unicode="e" 
d="M11 814q0 -69 17 -114.5t38 -63t52 -30.5h1q40 -15 51 -42q11 -28 11 -89v-5h1h55h1v5q0 44 -5.5 76t-12.5 50t-22 32t-25 19t-31 13l-1 1q-30 11 -47 41.5t-17 106.5v5h-66v-5zM336 613l7 -3.5l7 -3.5q21 -8 31 -16t18 -36t8 -79v-5h6h55h5v5q0 44 -6 76t-13 50t-23 32
t-26 19t-31 13l-4 1q-19 7 -31.5 18t-23.5 44t-11 86v5h-57v-5q0 -91 24 -136t65 -65zM580 606h1q14 -6 20.5 -9t16.5 -12t15 -23.5t8 -37.5q2 -14 2 -49v-5h1h55h1v5q0 44 -5.5 76t-12.5 50t-22 32t-25 19t-31 13l-1 1q-29 11 -46 41.5t-17 106.5v5h-67v-5q0 -69 17 -114.5
t38 -63t52 -30.5zM887 70q61 4 100.5 51t34.5 108q-4 61 -50.5 100.5t-107.5 34.5h-2l-2 -1v36q0 4 -1 11t-11.5 18t-28.5 11l-775 -1q-18 0 -28.5 -10t-11.5 -20l-2 -9v-135q0 -136 86.5 -243t220.5 -145h-270q-7 0 -12.5 -5t-5.5 -12v-28q0 -12 18 -14q211 -20 397 -20
q83 0 182 5t156 10l58 5q7 1 13 5t6 9v28q0 7 -5.5 12t-13.5 5h-277q85 24 153.5 78.5t107.5 128.5q31 -13 59 -13h12zM766 344v-83q0 -127 -98.5 -217.5t-236.5 -90.5t-236.5 91t-98.5 220v79q70 0 331.5 0.5t338.5 0.5zM928 221q1 -22 -13 -38t-36 -18q-17 -1 -30 6
q11 46 11 90v7q6 2 11 2q22 2 39 -12.5t18 -36.5z" />
    <glyph glyph-name="f" unicode="f" 
d="M513 726q90 0 168 -27q79 -27 135 -73q54 -44 85 -103q29 -54 29 -119q0 -64 -29 -118q-32 -61 -85 -104q-56 -46 -135 -73q-78 -27 -168 -27h-16q-3 0 -10 0.5t-10 0.5q-10 0 -15 1q-4 0 -10 1t-10 1l-44 5l-31 -31q-34 -34 -66 -52l-11.5 -6l-11.5 -6q7 25 7 57v7
q0 13 -1 20v1q0 1 -0.5 3t-0.5 3v1q-1 2 -2 8t-2 8l-8 35l-30 20q-36 25 -63 52q-29 29 -46 59q-19 31 -29 65q-9 33 -9 69q0 64 29 118q32 61 85 104q56 46 135 73q78 27 168 27h2zM513 819h-1q-110 0 -200 -32q-95 -34 -162 -89q-70 -57 -109 -132q-40 -76 -40 -162
q0 -50 13 -95q12 -43 38 -86q24 -40 59 -77q33 -35 78 -64q2 -6 2 -8q0 -1 0.5 -3.5t0.5 -3.5v-7v-7q0 -28 -10 -51q-11 -25 -28 -45q-14 -17 -41 -38q-19 -15 -49 -31v-27q53 2 96 7q54 7 95 20q50 16 92 40q46 26 86 66q3 0 10 -1t10 -1q7 -1 20 -1q3 0 10 -0.5t10 -0.5
t9 -0.5t10 -0.5q110 0 200 32q95 34 162 89q70 57 109 132q40 76 40 162t-40 162q-39 75 -109 132q-67 55 -162 89q-90 32 -199 32z" />
    <glyph glyph-name="g" unicode="g" 
d="M313 -164q92 -40 199 -40t199 40q96 42 163 109q69 69 110 163q40 92 40 200q0 107 -40 199q-41 94 -110 163q-67 67 -163 109q-92 40 -199 40t-199 -40q-96 -42 -163 -109q-69 -69 -110 -163q-40 -92 -40 -199q0 -108 40 -200q41 -94 110 -163q67 -67 163 -109zM189 355
h-2q3 0 6 -3q3 -2 4 -7q1 -1 1 -4t1 -5q1 -3 1 -7v-2q1 -2 1 -3q0 -4 1 -6q2 -4 3 -5q2 -2 5 -2q2 -2 4 -3t5 -1q2 0 6 -2l3 -3q4 0 6 -1q1 -1 3.5 -1t3.5 -1t3.5 -1t3.5 -1q2 -1 6 -1t5 -1l2 -2t2 -1l3 -3q1 -1 5 -1q0 -2 1 -2h1l1 -1h2v-1q1 0 3.5 -1.5t3.5 -1.5
q4 -1 8 -4q6 -4 7 -5q3 -3 1 -6l3 -3q3 -3 4 -5q0 -1 2 -2.5t2 -2.5q1 -2 1 -4q0 -3 3 -5l6 -3q4 -2 7 -2q4 0 5 -1q1 4 4 7q2 1 4 -1l3 -6q1 -2 1 -6v-4v-5v-5v-5q3 0 3 -2t-1 -3t-2 -1q-2 0 -3 3q-1 0 -1 -0.5t-1 -0.5t-1 -1v-1l-1 -1l-1 -1v-1q-1 0 -3 -4q-1 -2 -3 -8v-8
q0 -4 3 -5q0 -4 -1 -6l-3 -6v-6q0 -3 4 -4q8 -10 10 -13q1 -2 3 -5t3 -5q3 -4 1 -4v-2l1 -2l1 -1v-2v-1l1 -2v-2q0 -2 2 -8q1 -4 4 -8q2 -3 6 -7q3 -3 7 -3q5 -5 6 -7l4 -4q2 -2 0 -2q1 -5 1 -15v-13q0 -2 -0.5 -6t-0.5 -7q0 -2 -0.5 -7t-0.5 -8q-3 0 -3 -7q0 -2 -0.5 -7.5
t-0.5 -8.5q0 -7 -2 -17q-2 -9 -4 -10q-1 -1 -1 -3t-1 -3l-2 -4q-1 -1 -1 -4v-4v-6v-5v-5v-4q-1 0 -1 -2q0 -1 -1 -3v-2l-1 -2l-1 -1v-2l-2 -3q-1 -2 -1 -8q0 -1 -0.5 -5t-0.5 -6t-0.5 -6t-0.5 -6q-66 25 -118 65q-55 43 -93 97q-38 55 -61 121q-22 65 -22 138q0 25 3 49
t9 48q7 28 13 46q6 19 18 44q2 -4 2 -6q0 -1 0.5 -3.5t0.5 -3.5v-7v-7v-6q0 -1 0.5 -3.5t0.5 -3.5t0.5 -3.5t0.5 -3.5v-7l3 -3q0 -1 2 -3t2 -3t1 -2.5t1 -2.5q1 -2 1 -4l3 -3t2 -3q2 -4 4 -7q5 0 7 -1q1 0 2.5 -0.5t2.5 -1.5q2 -2 3 -4t1 -7l4 -8q0 -1 1 -2.5t2 -2.5l2 -4
q0 -3 1 -5l3 -6q1 -1 2 -3.5t1 -3.5l2 -4q0 -5 5 -10q7 -7 8 -7q4 -1 5 1q1 3 -6 13l-2 4q0 1 -2 3t-2 3l-3 6q-1 2 -3 2q0 3 -1 4l-4 4q-1 0 -2 2l-1 2q-2 2 -2 4q2 2 3 1l2 -1q2 -1 3 -2q2 -2 4 -6l2 -4q1 0 2 -1q0 -1 1 -2t1 -2q1 -1 1 -2q1 -2 1 -3q2 0 4 -1
q1 -1 2.5 -2t2.5 -2q3 -1 4 -4zM876 293l-8 11q2 0 4 -3q0 -1 1 -2.5t1 -2.5q2 -4 4 -6t8 -2l2 2l4 2q2 1 5 1q1 0 3 1h1q2 2 4 3l6 3q2 1 7 1q1 0 3 1h2q-1 1 2 4q1 1 4 2.5t4 2.5t3.5 2.5t3.5 2.5q4 2 4 3h1q1 1 1 2t0.5 1t0.5 1t0.5 1t0.5 1v-2v-2v-2v-2q0 -25 -3 -51
q-3 -25 -9 -49q-8 -32 -13 -47q-7 -22 -18 -45l-2 -2l-1 -1v-1v-1l-1 -2l-1 -1l-1 -1v-1h-2q-2 0 -2 -1v-3q0 -1 1 -2q0 -1 -0.5 -1t-0.5 -1t-0.5 -1t-0.5 -1t-0.5 -1t-0.5 -1v-2h-3h-3q-1 0 -1 0.5t-1 0.5t-1 0.5t-1 0.5q-2 -2 -2 -4v-2q0 -2 1 -2h3l-1 -2q0 -1 -1 -1h-2
l-2 2l-2 2l-1 -2v-2t-0.5 -3t-0.5 -3t-0.5 -3t-0.5 -4v-8q-29 -45 -71 -84q-40 -37 -88 -64q-45 -25 -103 -41q-56 -15 -114 -15q-20 0 -30 1l-30 3q-10 1 -30 5q-18 4 -28 7l1 1l1 2h1q1 1 2 1l1 1q0 2 1 2t1 1t1 2l2 2l1 1q0 2 1 2t1 1t-1 2t-2 1t-1 -1l-1 -2l-1 -1h-1v1
v1v2v3q0 1 1 3v1q1 1 1 2t0.5 2t0.5 2q1 0 1 1l1 1v1v1l1 1l2 2l3 3q0 1 1 1t2 1t1 2v2q1 2 1 3l-1 1v2v1l-1 2q0 1 -1 1q1 1 4 1h3h3q1 0 1 4q1 0 1 1t0.5 1t0.5 1t0.5 1t0.5 1v2l3 3q1 1 3 1l2 1h2h6q0 1 1 2q1 0 2 1t2 1q1 1 4 1q1 0 3 1v6v5q0 2 1 3q1 0 2 1l2 2t3 1
t2 2l1 1q1 1 2 1t2 2l1 2q1 1 1 4l1 2v2q0 3 1 4q1 0 2 1l2 2l2 2t2 1q1 1 4 1h3l1 1v1q2 1 3 1v2v1q1 1 2 1l2 2q1 1 1 4q0 1 0.5 3t0.5 3v6v5q-1 0 0 1l2 2l5 5h2q1 0 1 0.5t1 0.5t1 0.5t1 0.5t1 0.5t1 0.5q1 1 3 2q1 0 3 2t3 2l6 3q4 2 5 3q0 1 0.5 2.5t1.5 2.5l2 2t1 2
t1 2l2 2t1 5q1 0 2 2t1 6q0 1 0.5 3.5t0.5 3.5v3l1 2v8v5v4l1 1q1 1 1 2l2 2q10 3 11 3q6 4 8 7q1 1 2 3q3 4 4 6q2 6 2 11q0 7 -3 13t-7 10t-10 7t-13 3q-1 0 -2 -0.5t-2 -0.5t-2 -0.5t-2 -0.5q-3 0 -4 -1q-1 0 -2 -1t-2 -1t-2 -0.5t-2 -0.5t-1 -0.5t-1 -0.5h-1l-2 -1h-3v3
v5q0 4 -1 5q-2 2 -4 2q0 -3 -1 -4t-2 -1q-2 0 -2 2q0 3 1 4q-2 0 -3 1q-1 0 -1 1l-2 1l-1 1q-1 1 -2 1q-1 1 -3 1q0 -4 -2 -4h-4q-1 0 -3 2q-1 1 0 1q-1 3 -1 6v3q0 2 2 2q0 1 -0.5 2t-0.5 2t-0.5 2t-0.5 2q0 2 -1 3q-1 0 -1 1t-1 2t-1 3v1q0 1 -1 2q-2 2 -4 3l-1 1h-1h-1v2
q-1 0 -2 1t-2 1l-1 1h-1l-2 -2h-4h-1q-1 1 -2 1t-3 1h-1q-1 1 -2 1l-4 1v1v1l-2 2q0 1 -1 1l-1 1h-2l-2 2q-1 1 -1 2l-2 2l-1 1q0 1 -1 2h-2l-1 1l-1 1q0 1 -1 1l-2 1q0 1 -1 2q-2 -2 -4 -2h-5h-5h-4q-4 0 -6 2t-3 4q0 1 -0.5 2.5t-1.5 2.5q-2 2 -3 2l-1 -1q-1 -1 -2 -1
q-2 -2 -3 -2h-1q-1 -1 -2 -1h-3l-1 1l-1 1h-1h-1l-2 -2l-1 -1l-2 -2l-2 -2l-2 -2q-1 0 -2 1l-2 1l-1 -1q-1 0 -1 -1q-2 0 -2 -3v-5q0 -4 -1 -6t-8 -2v4q0 2 -1 3l-1 1q0 2 -1 2q-1 1 -5 1q0 -1 -2 -3t-4 -2h-6h-5v3v3q0 1 -2 3l-1 1q-2 0 -2 1v2q0 1 -0.5 2t-0.5 2t-0.5 2
t-0.5 2t-0.5 2t-0.5 2q-2 0 -2 2v6v5q0 3 -4 3v-2v-1h-4h-5h-5h-5q1 1 1 3q0 1 -1 3v1l-1 1v4l1 1v2v1l1 2l1 1v2v4q2 0 2 1v1l1 1q0 2 1 3t3 1l2 2v3q0 1 -2 1q-1 0 -1 -2q-2 -2 -3 -2q-3 0 -5 -1l-3 -3q-1 -1 -3 -1q-1 0 -1 2l-1 -1q0 -2 -1 -2l-3 -3q-1 -1 -1 -3l2 -2
q0 -1 -1 -2l-2 -2l-2 -2h-4h-2q-1 1 -1 2v3q-2 0 -4 2l-4 4l-4 4q-2 2 -4 2q0 3 -1 4q0 1 -1 2t-1 2t-1 2t-1 2q-1 1 -1 4v11v12q0 2 2 8q1 4 4 7q4 4 6 5q4 2 7 2h3l2 -1q1 0 2 -1q1 0 1 -1l2 -1q1 -1 4 -1h2h2l1 1h1l2 2v2l-1 1q-1 1 -1 2t-0.5 1t-0.5 1h5q1 0 3 -0.5
t3 -0.5q4 0 6 -1t3 -2t4 -1q1 0 2 0.5t2 0.5t2 0.5t2 0.5l2 -2l2 -4q1 -1 1 -2.5t1 -2.5q2 -4 2 -5v-3q1 -1 1 -2t1 -2q2 -2 3 -4q3 0 4 1t1 2v4l-1 2v2v5q0 1 -0.5 3t-0.5 3q0 2 -2 6l-2 4q0 3 2 7t3 5q3 3 5 4t4 6q3 0 5 2l4 4q0 1 1 2.5t2 2.5q1 2 3 4v1q1 1 1 2t0.5 2
t0.5 2q0 3 1 5l1 1v2q0 2 1 3l2 2l2 2q1 1 3 2l2 2q3 3 5 4q1 0 2 1l2 2l2 4q1 1 1 2.5t1 2.5q0 1 0.5 2.5t1.5 2.5h2l2 2l2 2q1 1 1 2h4l1 1h2h1l2 1l2 1h3v-2v-1l1 -1v-1h-2h-3q0 -2 -1 -2l-1 -1h2q3 0 6 1q0 1 1 1h1l1 1l1 1h1h1l1 1l1 1l1 1l1 1v2h-2q-1 0 -1 0.5
t-1 0.5l-2 2l-2 2q-1 1 -1 2t-1 2q-3 3 -3 4q0 2 1 3t5 1v1h-1v1l-1 -1q-2 0 -2 -1t-1 -1t-2 -1q-2 -2 -3 -2h-4q-1 -1 -2.5 -2t-2.5 -1q-4 -2 -5 -3l-4 -2q-2 -1 -6 -1q0 2 3 7q1 1 3 4t3 4l7 7q2 2 6 4q3 1 12 1q2 0 6 -0.5t6 -0.5q8 0 11 1t5 8l2 -1h2t2 -0.5t2 -0.5h5
q2 0 2 3q1 0 1 1v2v2q0 1 3 1q0 1 -1 2l-3 3l-1 1q-2 0 -2 1q-1 1 -2 1q0 3 -1 3h-2l-1 -1q0 -2 -1 -2q-1 -1 -2 -1q0 1 -1 3v1l-1 1l-2 2q0 3 -1 4l-4 4l-4 4l-1 2q-1 2 -2 2t-2 3l-3 6l-3 6q-2 3 -3 2v-4q0 -2 -2 -4l-2 -2q-1 -1 -4 -1q0 -2 -1 -2h-2h-3h-3v2q0 1 1 1v1
h-1l-1 1v2q-1 0 -3 2l-4 4l-5 5l-2 4q-3 -1 -5 -1q-1 0 -1 1l-2 2q-4 4 -5 4q-2 -4 -3 -4h-5q-2 0 -6 2q-2 1 -5 1h-3h-2h-2l1 -2v-3t0.5 -3t0.5 -3v-5l-3 -3l1 -3h1h2q1 0 2 -1q2 -2 2 -4v-5v-4q0 -2 -2 -4q3 -1 3 -3q0 -1 -1 -1l-2 -1q-2 -2 -4 -2q-3 0 -3 2l-3 -3
q-1 -1 -1 -3t1 -3q0 -1 1 -1t2 -1v-3v-3q0 -1 0.5 -1t0.5 -1t2 -1q0 -2 -1 -3q-2 -2 -4 -2h-4q-3 0 -4 1v2h2v3q0 1 -0.5 2t-0.5 2v1l-1 2v2q0 2 -1 4q0 1 -2 2.5t-2 2.5q-2 3 -3 3q-2 0 -2 -2h-4h-3q-1 0 -3 2q-1 1 -1 3h-2l-1 1h-1l-1 1q-1 1 -1 2q-3 1 -7 1q-1 0 -3 0.5
t-3 0.5t-3 0.5t-3 0.5t-7 2q0 2 -1 4t-4 5t-5 4q-4 2 -5 3v8v7q0 3 2 5q1 1 7 3h2q3 0 4 1q2 2 6 3q2 2 3 2h3h3q1 0 2 4l2 2t1 2t1 1t2 1t4 1t4 -1v-5q0 -3 -2 -5l-1 -1q0 -2 -1 -2q-2 -2 -4 -2q1 -1 5 -1q1 0 3 0.5t3 0.5q4 0 6 1t5 1q2 -1 5 -1h3h2q-3 3 -5 4q-3 1 -7 3
q-2 1 -5 4q-2 2 2 5q0 2 2 2l1 1h2q3 0 4 1t1 3v2q1 1 1 2v5v4q0 2 -1 2h-2h-2h-3h-4v2v1v1h-2v-2h-2q-1 0 -1 0.5t-1 0.5h-3q2 -2 2 -3v-1q0 -1 -1 -1v-5q0 -3 -2 -5l-3 -3q-1 -1 -5 -3v5q0 1 -2 5l-2 4l-2 2t-2 1q0 -5 -2 -5q-3 0 -6 3l-6 6l-4 4q0 2 -1 3l-2 2l-2 2h-2
l-2 -2l-1 -1h-1h-3l-3 -3q-1 -1 -1 -3v-2v-2q0 -2 -1 -3l-2 1h-2h-5h-5q-2 0 -2 -3h3h2v-2v-3h3q0 -1 -1 -2t-5 -3h-3q-1 0 -3 -1h-3h-4h-1q-2 1 -3 1t-2.5 0.5t-2.5 0.5t-2.5 0.5t-2.5 0.5q-4 0 -5 1l-1 1q-1 1 -2 1l-1 2l-1 1h-2l2 2l1 1l1 1l1 1h2l2 -1q0 -1 1 -1
q3 0 4 -1t4 -1l2 2q1 1 0 5h2h2h2h2l-1 2q0 1 -1 1h-3h-4h-2l-2 -1v2v1v1q33 28 64 47q34 21 72 36q35 14 78 22t83 8q49 0 86 -8q40 -9 80 -24q38 -15 74 -38q39 -26 65 -50h-4h-4h-3h-2q0 2 -7 2q-4 0 -14 -2q-2 0 -7 -2t-8 -2l-6 -2h-2q-4 0 -6 -1l-4 -2l-4 -4
q-3 -3 -5 -4q-4 -3 -9 -8q-1 -1 -4 -7q-1 -3 3 -3q-1 -4 -6 -7q-3 -2 -11 -4t-11 -3q-5 -2 -5 -5h-3h-3q-2 0 -2 -2q0 -1 2 -5t3 -5l5 -5h4q1 0 2.5 -0.5t2.5 -0.5t2.5 -0.5t2.5 -0.5t3 -0.5t3 -0.5q0 2 1 2h1l1 1h2h2v-4q0 -1 2 -5l2 -4l2 -2v-4v-1q-1 -1 -1 -2q0 -2 -2 -2
t-4 1q-1 1 -1 4v3v2q0 2 -1 2q-2 0 -3 -1l-2 -1l-2 -1q-1 -1 -4 -1v-4v-6q0 -3 2 -5l3 -3q-2 -2 -3 -2l-2 -1h-2h-2l-2 -1l-3 -3q-2 0 -3 -1l-3 -3q-1 -1 -2 -1t-1 2l-3 -3l-1 -1v-2q0 -2 -1 -2q-2 0 -5 1v-2v-2v-2v-2h2q0 -1 -1 -2t-3 -1l-1 -1h-1q0 -3 -1 -3q-2 0 -3 1
l-1 1q-1 1 -2 1q-1 1 -2 1l1 -5q-1 -1 -4 -1t-5 1l-4 2l-2 1q0 -1 1 -2l2 -2q2 -2 3 -2q0 -2 2 -4q4 -4 5 -6q2 -4 2 -6q0 -5 -2 -8v-1v-1l1 -1h2q0 -2 -2 -4q-1 -1 -3 -1h-5h-4q1 1 1 2t-0.5 1t-0.5 1q0 2 -2 2h-3q0 -2 -2 -2l-2 -1h-3h-6q-4 0 -5 -1l-1 2l-1 1h-1h-1
q-2 -2 -2 -5q0 -1 -0.5 -5t-0.5 -5v-12q0 -5 1 -7q0 -1 2 -3t2 -3q1 -2 5 -4q1 0 3 -1t3 -1q0 1 3 1q1 0 3 0.5t4 0.5h7q4 0 4 2l1 1q1 1 1 2t1 1l1 2l3 3q1 1 1 4t1 6q1 1 2 4t2 5q1 3 5 13q4 -1 9 -1h7q3 0 5 2q1 0 1 0.5t1 0.5t1 0.5t1 0.5t1 0.5t1 0.5t1 1q1 0 3 -2
q1 0 2 -2l1 -2l1 -1q1 -1 1 -2l2 -2q2 -2 4 -3q1 0 2.5 -1t2.5 -1t2.5 -1t2.5 -1q3 -1 4 -4q1 0 3 -2q1 -1 1 -5q0 -1 0.5 -3t0.5 -3v-5q1 0 2 2l1 2q2 2 2 3v1l1 2v3q-1 3 0 3h2q1 0 2 -0.5t2 -0.5h3q-2 0 -2 1t-1 2q-1 0 -1 1l-2 1q-1 1 -4 0v2v2v2v2q-4 -1 -6 1
q-3 3 -4 5t-3 4t-4 1q0 1 -1 2l-2 2v2q0 2 1 3q1 2 4 1q2 -1 6 -5q1 -1 3.5 -3t3.5 -3q3 -3 5 -3q0 -1 1 -1h2l2 -1l1 -1h2q2 0 2 -2l2 -2l1 -2v-2v-2l-1 -2v-4h2l1 -1q1 -1 1 -2t1 -2l3 -3q1 -1 1 -2.5t1 -2.5t1 -2.5t1 -2.5q1 -2 6 -4q0 2 1 3q0 1 1 2l2 2q2 2 2 4
q0 1 -1 1q0 2 -1 4q-2 4 -2 6q0 3 1 4q2 2 5 1h2h3q1 0 3 -2q1 -1 1 -3q1 -2 1 -5q0 -1 1 -3v-2q0 -2 2 -4l1 -2q1 -2 2 -2q1 -3 5 -3h6q1 0 3.5 0.5t3.5 0.5q2 0 4 -2h2q1 0 2 -0.5t2 -0.5t3 -1q2 0 2 1q2 2 3 2t1 0.5t1 0.5h2h4l-1 -2v-2v-2l-1 -2l-1 -2v-2v-4v-1l-1 -1
l-1 -1v-2v-1l-1 -2v-4h-2v-2q0 -1 1 -1l1 -1h1q0 -2 -2 -4t-3 -2h-2q-2 -1 -3 -1h-4q1 -1 3 -5q1 -1 2 -3t2 -3t2 -2.5t2 -2.5q1 -2 3 -4l2 -4q0 -1 0.5 -2.5t1.5 -2.5l1 -2l1 -2l3 -3v-3l2 -4l2 -4q1 0 1 -1t1 -2q0 -3 3 -9q4 -8 6 -13q5 -12 5 -13q1 -5 0 -5q1 -1 1 -2
t0.5 -1t0.5 -1t0.5 -1t0.5 -1v-2zM314 356l1 1q-1 -3 0 -4t3 -1t3 1t1 3h-1l-1 -1h-1h-1q-1 0 -1 1h-1h-2zM346 346h1q1 0 2 -2l1 -2q1 -1 2 -1q2 -1 3 -1q4 -2 5 -2h4q4 0 4 1t-1 2l-1 1q0 2 -1 2l-3 3q-4 0 -5 1q-1 0 -2 1t-2 1t-2 1l-2 2q-2 2 -6 2l-1 -2q0 -1 -1 -1h-2
h-3h-3q1 0 1 -1l2 -1l1 -1q1 -1 2 -1q2 -2 4 -2h3zM353 325h-1v2l-1 1q-1 1 -2 1t-1 0.5t-1 0.5v-3q0 -2 1 -2h3h2zM357 326h-2v3h-1q-1 0 -1 -1l-1 -1v-1h2h1h1h1zM377 329l3 -1h5h4h3h5q0 1 -1 2l-1 1q-1 1 -1 2l-3 3q-1 1 -3 1q-1 -1 -1 -3v-1h-4q-1 0 -2 0.5t-2 0.5h-1
l-2 1l-2 1h-2v-1l1 -1l1 -2l1 -1v-1q-1 -1 -2 -1h-3h-3h-3q2 -2 3 -2h4h4q2 0 2 2zM383 292v1h-1h-2v-2v-1h2h1v2zM405 332l1 -1l-1 -3h1h1q1 0 1 0.5t1 0.5v1l-1 1l-1 1h-2zM890 273l12 5h-4v1q1 1 2 1t1 2q-2 0 -5 3q-2 2 -6 8q-2 3 -4 9t-2 7q-1 0 -2 1q-2 2 -2 3
q0 3 -1 5q-1 0 -2 2l-1 2l-1 2q-1 2 -2 2q-2 2 -2 4q0 3 1 4q-2 1 -6 5q-2 2 -4 6q0 1 -2 3.5t-2 3.5t-0.5 3t-1.5 3l-2 1q-2 1 -2 2l-2 4q-2 4 -2 5v5q-2 0 -4 2l-4 4q0 1 -1 3t-1 3q-1 2 -1 5q-2 0 -3 1q0 1 -1 1l-1 2l-2 2q-1 1 -3 1q2 2 -4 4q-2 1 -5 1.5t-5 0.5
q-8 2 -12 2h-8q0 1 -0.5 2t-0.5 2t-1 2q-2 2 -3 2h-3q0 -3 -3 -5q-4 -2 -7 -3h-8h-6h-5q-1 0 -2 1h-2q-3 0 -4 1t-1 3h-3h-3h-3h-3q0 1 -2 7t-4 9l-2.5 5t-2.5 4l-5 5v-1v-2q-4 0 -7 1q-6 2 -11 2h-10q-4 0 -4 -2q-2 0 -4 -1q-1 -1 -3 -1t-3 -1l-6 -3q-1 -1 -2 -3l-1 -1
q-6 -2 -7 -2h-3l-1 -1q-2 0 -2 2h-3l-1 -1h-1l-2 -2l-2 -2q-2 0 -3 -1l-2 -2l-1 -1q0 -2 -1 -2t-1 -1t-1 -2l-3 1h-1q-1 0 -1 -1l-2 -4v-1q-1 -1 -1 -2q0 -3 -1 -5l-3 -6l1 -2l1 -1l-1 -1l-1 -1q-1 0 -2 -1l-2 -2t-1 -2t-1 -2l-2 -2t-1 -2t-1 -1t-2 -1q-2 -4 -3 -4h-2l-1 -1
h-1l-2 -3q0 -1 -1 -2t-1 -2t-1 -1l-1 -2l-1 -1q-1 -1 -1 -2l-2 -2l-4 -8q-2 -4 -2 -6v-6v-7v-1q-1 -1 -1 -2t-1 -3v-1q-1 -1 -1 -2v-2v-5q0 -1 0.5 -2.5t0.5 -2.5v-3l1 -1q0 -1 1 -3l-2 -2q-1 -1 -1 -3q0 -3 1 -4l3 -3q0 -5 1 -8q2 -6 4 -9l6 -9q2 -3 5 -6q0 -1 2 -5t4 -6
q4 -4 6 -5q4 -2 5 -2q4 -4 5 -4t4 -1t4 -2q3 -1 8 -1q4 0 4 2q6 0 11 1t14 1q10 0 14 -1q8 -2 9 -5h5h5q1 0 2 -0.5t2 -0.5q3 0 5 -1v-6q0 -2 -0.5 -4t-0.5 -4q0 -6 -1 -8q-2 -4 -3 -5v-6q0 -2 2 -6l2 -4l4 -4q0 -2 1 -3l1 -1q1 -1 1 -2l3 -3q0 -1 0.5 -4t1.5 -4q1 -2 1 -7
q0 -1 0.5 -4t0.5 -4q0 -6 -1 -9q0 -2 -1 -5t-1 -4t-0.5 -4t-1.5 -4q-2 -4 -2 -7v-7q-1 0 -1 -4q0 -1 2 -7q0 -1 0.5 -4t1.5 -4q1 -3 2 -3q0 -6 1 -8q0 -1 1 -3.5t1 -3.5t1 -3.5t2 -3.5q1 -2 1 -7q1 -2 1 -5q0 -1 0.5 -2t0.5 -2v-1l1 -2q-1 0 1 -5q2 -6 4 -10l5 -10
q3 -5 3 -6q1 0 1 -2q0 -1 1 -3v-2l1 -2q0 -1 2 -1v-5q0 -1 1 -2v-2v-2l1 -2l1 -2v-2l3 -3h6q1 0 3 0.5t3 0.5h3l2 1q0 1 3 2q1 1 4 1.5t4 0.5q3 1 9 1h4l1 1l3 3q0 1 2 3t2 3q1 1 2.5 3.5t2.5 3.5q0 4 2 6q1 1 3 3.5t3 3.5t3 3.5t3 3.5l3 3l3 1q1 6 3 9l3 9v9q0 2 0.5 4
t0.5 3t0.5 3.5t0.5 3.5t0.5 3.5t0.5 4.5q1 0 2 1q0 1 1 2t1 2t1 1l1 2q2 2 4 2q0 1 1 1t1 0.5t1 0.5t1 0.5t1 0.5l2 2q0 2 1 4q0 1 1 2.5t1 2.5t1 2.5t1 2.5q1 2 1 6q1 0 1 4q0 6 -1 9q-1 2 -1 5t-1 4q-1 3 -1 6q-4 0 -4 5v11q0 2 0.5 5.5t0.5 5.5t1 4v3q-2 0 0 3
q1 1 2.5 3.5t2.5 3.5q2 3 9 10l2 4q1 2 4 5l5 5l4 4l3 3l4 4l1 2q1 2 2 2q2 2 2 4q1 0 1 1l2 1l2 2l2 2l2 2v1l-1 1v3v3q0 1 3 1q-1 4 0 7q0 1 1 3t1 3l3 6q2 4 2 7q-2 -2 -5 -2q-1 0 -3 -0.5t-3 -0.5h-6h-6q-1 -1 -4 -1h-4zM633 547l-3 4v-1l-1 -2l-1 -1v-2v-2q0 -2 2 -4
q5 0 7 1q4 2 5 3t3 5l3 6v4q0 1 -1 1h-3l-1 -1h-1h-1l-1 1l-2 1l-1 1v-1v-2v-1q1 -1 2 -1t1 -0.5t1 -0.5q0 -1 -3 -2l-4 -2q0 -1 -1 -1t-2 -1t2 -2zM660 582h-2q-1 -4 -3 -4q-1 0 -2 -0.5t-2 -0.5h-2q-1 0 -1 -4v-3v-1q1 -1 1 -2t0.5 -1t0.5 -1v-1l1 -2h5q1 0 3 -2
q1 -1 1 -3v-2q1 -2 1 -3l2 -1q-1 -1 -2 -1h-7q0 -2 -1 -3q-2 -2 -2 -3v-3q0 -2 4 0q1 1 3 1h1q1 -1 1 -2v-1q1 -1 1 -2h6q1 0 3 0.5t3 0.5t5 2q3 1 4 4l1 1q1 0 1 1v1l-1 1q0 1 -1 1v-3l-1 -1q0 -1 -1 -1h-3q1 2 1 6v3l-1 2q0 1 -2 3q-1 1 -4 1q0 1 -0.5 1t-0.5 1t-0.5 1
t-0.5 1t-1 2l-2 2q-2 2 -2 3v2q0 1 2 3q1 1 1 3q-2 0 -3 -1l-2 -2q-1 -1 -2 -1h-1q-1 -1 -2 -1v3v2q1 0 1 0.5t1 0.5t1 1v2zM656 532h-2h-2h-1q0 -1 1 -1l1 -1h1l1 1q1 0 1 1zM720 472h-1v-3l-1 -1h-1v2q-3 0 -3 -1v-2v-3v-1q1 -1 1 -2q2 -1 4 1t2 4v4q0 2 -1 2zM715 481v-2
q1 -1 1 -2v-1v-1l2 -2q0 2 1 3t1 2v1l1 1l-2 2v-1l-1 -1h-1q-1 0 -2 1zM736 452v-3q3 0 5 -1q4 -2 5 -2h3q1 1 1 6l-3 -1l-1 -1q0 -1 -1 -1q-2 0 -3 1h-1l-1 1l-1 1h-1h-2zM872 455h2q3 0 2 -1q-2 -2 -4 -3q-1 -1 -2.5 -2t-2.5 -1q-2 -1 -2 0q-4 -1 -7 0q-2 1 -4 3l-3 3
q-1 1 -3 1q0 -3 -1 -3t-2 1q-2 2 -3 4l-5 -2q-3 -1 -10 -1q-2 0 -6 -0.5t-6 -0.5t-5 -1h-2v2v2l-1 1h-1q0 6 1 9q2 6 3 8q0 1 2 3.5t2 3.5t1.5 3t2.5 4h5q2 0 4 -2t2 -3l1 -2v-3q2 0 2 -1t0.5 -1t0.5 -1t2 -1h4l2 2q1 0 1 0.5t1 0.5h2h2h3l1 -1h2t1 -0.5t1 -0.5t1 -0.5
t1 -0.5q2 -3 3 -4q1 0 2.5 -1t2.5 -2q4 -2 5 -4q2 -4 2 -8zM845 601h-1l1 -1l1 -1l1 -1l2 -2h-2h-1v2q-1 0 -1 1v2zM933 478l4 2q4 0 6 -1t5 -4q1 -1 3 -5t2 -6t-2 -6t-3 -5t-5 -3t-6 -2h-4l-1 -1v-1v-3q0 -2 1 -3t3 -1q-1 -3 -4 -4h-5q-2 0 -6 2q-1 0 -3 5h-2l-2 1
q-1 0 -2 1l-2 2v2h-6q-2 0 -6 2t-5 3q-3 3 -4 5t-1 6t1 6t3 4l4 4q2 1 6 1q-4 0 -4 2v5q0 1 1.5 3.5t1.5 3.5q1 0 3 1q2 0 3 1l1 1q2 0 2 1t1 1t2 1q1 -1 1 -2v-1l1 -2l1 -1v-2t2 -3h-2h-1h-1q-1 -1 -1 -2l1 -1v-2t2 -5h17zM927 351l-3 -1v1v1v1v2v17q1 -1 1 -2l1 -1v-1v-1
q1 -1 1 -2l1 1q0 2 1 2l3 3q1 1 4 1h2l2 1q2 0 6 -2t5 -3t3 -5t2 -6v-2q0 -1 -0.5 -1t-0.5 -1t-0.5 -1t-0.5 -1v-2q0 -1 -1 -2l-2 -2l-1 -1q-2 0 -2 -1q-2 -2 -3 -2h-4h-3l-1 1h-1h-1l-1 1l-2 2l-2 2l-2 2q0 1 -0.5 1t-0.5 1v2v-2z" />
    <glyph glyph-name="h" unicode="h" 
d="M486 817q-10 -5 -21 -16l-275 -275h-182v-438h182l275 -275q9 -9 21 -15q9 -4 17 -1q7 3 12 12q4 8 4 26v945q0 17 -4 25q-5 10 -12 13q-8 3 -17 -1zM636 45l-2 1q8 0 11 1q8 3 10 4q1 1 5 2.5t5 2.5q6 4 9 7q50 49 75 114q25 63 25 131t-25 131q-25 65 -75 114
q-8 7 -18 12q-9 4 -21 4q-11 0 -20 -4q-12 -5 -19 -12t-12 -19q-4 -9 -4 -20q0 -12 4 -21q4 -11 12 -18q36 -36 52 -78q17 -45 17 -90q0 -44 -17 -89q-16 -42 -52 -78q-7 -7 -12 -19q-4 -9 -4 -20q0 -12 4 -21q4 -10 12 -18q1 -1 10 -7l5 -2.5t4 -2.5t11 -4q3 -1 10 -1z
M834 -58l-3 -1q8 0 11 1q10 3 11 4t4 2.5l5 2.5q6 4 9 7q37 37 63 76q28 41 45 85q20 51 28 92q9 48 9 96q0 49 -9 97q-8 41 -28 92q-17 44 -45 85q-26 39 -63 76q-7 7 -18 12q-9 4 -20 4q-12 0 -21 -4q-10 -5 -18 -12q-7 -7 -12 -19q-4 -9 -4 -20q0 -12 4 -21q4 -11 12 -18
q55 -55 84 -127q28 -69 28 -144t-28 -144q-29 -72 -84 -127q-8 -7 -12 -18q-4 -9 -4 -21q0 -11 4 -20q5 -12 12 -19q3 -3 9 -7q1 -1 5 -2.5t5 -2.5q2 -1 10 -4q3 -1 11 -1z" />
    <glyph glyph-name="k" unicode="k" 
d="M385 729q59 0 113 -23q53 -22 93 -62t62 -93q23 -54 23 -113q0 -25 -5 -53q-4 -24 -14 -50t-22 -45q-14 -23 -29 -41l-15 -18l-17 -14q-18 -15 -41 -29q-18 -11 -46 -22q-26 -10 -50 -14q-28 -5 -52 -5q-62 0 -113 22q-51 21 -93 63t-63 92q-22 51 -22 114q0 62 22 113
q21 51 63 93q40 40 93 62q54 23 113 23zM385 822q-79 0 -150 -30q-70 -30 -122 -82t-82 -122t-30 -150t30 -150t82 -122t122 -82q71 -30 150 -30q35 0 70 6q28 5 65 19q29 11 60 29q26 15 54 38q0 -5 2 -17q2 -11 6 -19q8 -16 10 -19q4 -6 14 -18l206 -243q14 -16 30 -23
q17 -8 34 -9h4q15 0 30 5q16 6 29 19t19 29q6 18 5 34q-1 17 -9 34q-10 22 -21 32l-243 206q-8 7 -19 14q-3 2 -19 10q-9 5 -18 6q-12 2 -17 2q25 30 38 53q18 31 29 60q12 32 18 66q7 40 7 70q0 80 -30 150t-82 122t-122 82q-71 30 -150 30z" />
    <glyph glyph-name="l" unicode="l" 
d="M471 473h40h16h16h16h16l39 -1l80 -5q48 -2 71 -4l69 -6q46 -4 68 -7h1l1 -1q0 -3 2 -9t2 -9q7 -38 12 -80q6 -56 8 -84q3 -42 3 -86q0 -45 -3 -87q-2 -25 -8 -83q-5 -44 -12 -81q0 -2 -2 -8t-2 -8q-7 -1 -21.5 -2.5t-21.5 -2.5q-36 -4 -112 -10q-57 -4 -116 -6
q-80 -2 -121 -2t-121 2q-59 2 -116 6q-76 6 -112 10q-7 1 -21.5 2.5t-21.5 2.5q0 2 -2 8t-2 8q-7 37 -12 81q-6 52 -8 83q-3 42 -3 87q0 44 3 86q2 34 8 84q5 42 12 80q0 3 2 9t2 8q2 0 7 1t8 1q14 2 41.5 4.5t40.5 3.5q28 3 84 7q30 2 88 4zM256 819l-64 -64l193 -193
q-28 -1 -89 -5q-82 -5 -87 -6l-85 -9q-24 -3 -81 -11q-11 -42 -18 -82q-4 -25 -13 -87q-6 -43 -9 -89q-3 -45 -3 -92q0 -48 3 -93q3 -46 9 -89q8 -58 13 -86q8 -44 18 -83q72 -10 110 -14q3 0 116 -9q59 -5 119 -6q82 -2 124 -2t124 2q60 1 119 6q113 9 116 9q38 4 110 14
q10 39 18 83q5 28 13 86q6 43 9 89q3 45 3 93q0 47 -3 92q-3 46 -9 89q-9 62 -13 87q-7 40 -18 82l-1 2l-67 9q-25 3 -70 7l-72 6q-49 4 -72 5l164 164l-64 64l-224 -224h-16h-16h-16h-16z" />
    <glyph glyph-name="m" unicode="m" 
d="M515 758q2 -5 10 -13q7 -7 14 -10q10 -4 17 -4t17 4q5 2 13 10t10 13q4 10 4 17t-4 17q-3 7 -10 14q-8 8 -13 10q-7 3 -17 3t-17 -3t-14 -10t-10 -14q-3 -8 -3 -17t3 -17zM417 667q2 -2 10 -6q6 -3 12 -3t12 3t9 6q4 4 7 10q2 4 2 12q0 7 -2 11q-3 6 -7 10q-3 3 -9 6
t-12 3t-12 -3q-8 -4 -10 -6t-6 -10q-2 -4 -2 -11q0 -8 2 -12q4 -8 6 -10zM578 680q-2 2 -10 6q-6 3 -11 3q-6 0 -12 -3q-8 -4 -10 -6t-6 -10q-3 -6 -3 -12q0 -5 3 -11q4 -8 6 -10t10 -6q6 -3 12 -3q5 0 11 3q8 4 10 6t6 10q3 6 3 11q0 6 -3 12q-4 8 -6 10zM833 -132
q3 19 -4 33l-229 393v1v233h16q12 0 17 2q8 3 14 9t9 13q4 10 4 17t-4 17q-3 7 -9 13q-7 7 -14 10q-10 4 -17 4h-234q-7 0 -17 -4q-7 -3 -13 -9q-7 -7 -10 -14q-4 -10 -4 -17t4 -17q3 -7 10 -14q5 -5 13 -8q5 -2 17 -2h14l-1 -232l-202 -393q-5 -19 -2 -35t11 -33
q6 -11 22 -24q18 -14 31 -14h516q13 0 31 14q16 12 22 25q6 11 9 32zM609 158l157 -275q0 -1 0.5 -2.5t0.5 -2.5l-1 -2q0 -4 -2 -8q-1 -2 -5 -6l-4 -4l-2 -2h-481l-2 2l-3 3q-1 0 -5 7q-3 6 -3 8v7l145 284q13 15 25 19q15 6 29 3q15 -3 37 -23q25 -25 49 -28q20 -3 39 4
q14 5 26 16z" />
    <glyph glyph-name="p" unicode="p" 
d="M748 162l-172 173v229h-128v-283l210 -211zM711 779q-92 40 -199 40t-199 -40q-94 -41 -162 -109q-67 -67 -109 -163q-40 -92 -40 -199t40 -199q42 -96 109 -163q68 -68 162 -109q92 -40 199 -40t199 40q94 41 162 109q67 67 109 163q40 92 40 199t-40 199
q-42 96 -109 163q-68 68 -162 109zM430 715q43 8 82 8t82 -8q36 -7 77 -23q33 -13 71 -38q34 -22 63 -51t51 -63q24 -36 38 -72q16 -41 23 -77q8 -43 8 -82t-8 -82q-7 -36 -23 -77q-14 -36 -38 -72q-22 -34 -51 -63t-63 -51q-38 -25 -71 -38q-45 -18 -77 -24q-43 -8 -82 -8
t-82 8q-32 6 -77 24q-33 13 -71 38q-34 22 -63 51t-51 63q-24 36 -38 72q-16 41 -23 77q-8 43 -8 82t8 82q7 36 23 77q14 36 38 72q22 34 51 63t63 51q38 25 71 38q41 16 77 23z" />
    <glyph glyph-name="r" unicode="r" 
d="M896 691v-831h-672q-20 0 -37 7t-31 21q-13 13 -20 30q-8 19 -8 38q0 18 8 37t20 31t31 20t37 8h608v767h-640q-26 0 -49 -10q-25 -11 -41 -27q-18 -18 -28 -41t-10 -50v-767q0 -27 10 -50t28 -41q16 -16 41 -27q23 -10 49 -10h768v895h-64zM256 -76h576v64h-576v-64z
M960 -204z" />
    <glyph glyph-name="t" unicode="t" 
d="M711 779q-92 40 -199 40t-199 -40q-96 -42 -163 -109q-69 -69 -110 -163q-40 -92 -40 -200q0 -107 40 -199q41 -94 110 -163q67 -67 163 -109q92 -40 199 -40t199 40q96 42 163 109q69 69 110 163q40 92 40 199q0 108 -40 200q-41 94 -110 163q-67 67 -163 109zM430 715
q43 8 82 8t82 -8q36 -7 77 -23q36 -14 72 -38q32 -21 63 -52q28 -28 51 -63q25 -38 38 -71q18 -44 24 -78q8 -43 8 -82t-8 -82q-6 -32 -24 -77q-13 -33 -38 -71q-23 -34 -51 -63q-31 -31 -63 -52q-36 -24 -72 -38q-41 -16 -77 -23q-43 -8 -82 -8t-82 8q-36 7 -77 23
q-36 14 -72 38q-32 21 -63 52q-28 29 -51 63q-25 38 -38 71q-18 45 -24 77q-8 43 -8 82t8 82q6 34 24 78q13 33 38 71q23 35 51 63q31 31 63 52q36 24 72 38q41 16 77 23zM705 562l-1 1h-384v-128h320v-64l-192 -128v-64h128l192 128v192q0 12 -5 25q-4 10 -14 20
q-9 9 -20 13q-13 5 -24 5zM449 115v-128h128v128h-128z" />
    <glyph glyph-name="v" unicode="v" 
d="M512 819q-107 0 -199 -40q-96 -42 -163 -109q-69 -69 -110 -163q-40 -92 -40 -200q0 -107 40 -199q41 -94 110 -163t163 -110q92 -40 199 -40t199 40q94 41 163 110t110 163q40 92 40 199q0 108 -40 200q-41 94 -110 163q-67 67 -163 109q-92 40 -199 40zM512 -109
q-86 0 -162 33t-132 89t-89 132q-33 77 -33 162t33 162t89 133t132 89q74 32 162 32t162 -32q76 -33 132 -89t89 -133t33 -162t-33 -162q-33 -76 -89 -132t-132 -89t-162 -33zM384 83l384 224l-384 224v-448z" />
    <glyph glyph-name="w" unicode="w" 
d="M512 819q-107 0 -199 -40q-96 -42 -163 -109t-109 -163q-40 -92 -40 -199t40 -199q42 -96 109 -163t163 -109q92 -40 199 -40t199 40q96 42 163 109t109 163q40 92 40 199t-40 199q-42 96 -109 163t-163 109q-92 40 -199 40zM223 478l-6 -33q-4 -21 -5 -34
q0 -5 -1.5 -16.5t-2.5 -17.5q0 -6 -1 -18t-1 -18h-136q2 24 4 36q4 21 7 34q0 2 3.5 14.5l5.5 19.5l12 33h121zM107 136l-5.5 17t-5.5 16q-4 11 -10 33q-3 11 -7 35q-2 12 -4 36h136l3 -36q2 -24 3 -35t5 -33l6 -33h-121zM196 621l1 -1q18 18 28 26q20 16 30 23q16 12 32 20
l33 18q-12 -15 -24 -35q-18 -30 -22 -39q-11 -22 -19 -42q-9 -22 -16 -45h-103q7 11 14 19q2 3 7 9.5t7 9.5t8 9.5t8 9.5q10 12 16 18zM137 69l-1 -1h103q9 -27 16 -46q4 -10 20 -42l21 -39q9 -16 24 -34l-33 18q-16 8 -32 20q-10 7 -30 23q-10 8 -28 26q-6 6 -16 18
q-3 3 -8 9t-8 9t-7 10t-7 10q-7 8 -14 19zM483 478h-1v-137h-204l3 36q1 6 2.5 17.5t1.5 16.5q1 13 5 34q4 22 7 33h186zM278 273h1h204v-137h-186q-3 11 -7 33t-5 33q0 5 -1.5 17t-2.5 18zM357 633h-1l18 27q8 12 20 24q2 2 9 10t11 11q14 12 21 17q10 8 11 8q2 1 6 2.5
t6 2.5q8 4 12 5q2 0 5.5 2t5.5 2v-199h-165q2 4 5 11.5t4 11.5q6 16 10 23q2 3 5 11t5 11q8 14 12 20zM481 68h1v-200q-2 0 -5.5 2t-5.5 2q-4 1 -12 5l-12 6q-1 1 -11 8q-7 5 -21 17l-20 20q-12 12 -20 24l-18 27q-4 6 -12 20q-2 3 -5 11t-5 11q-4 7 -10 23l-9 24h165z
M547 136h1v137h204q0 -6 -1 -18t-1 -18q-1 -6 -2.5 -18t-1.5 -17l-6 -33q-4 -22 -7 -33h-186zM549 546h-1v200q2 0 5.5 -2t5.5 -3q4 -1 12 -5q2 -1 6 -2.5t6 -2.5q1 -1 11 -8q7 -5 21 -17q4 -3 11 -11t9 -10q12 -12 20 -24q3 -5 9 -13t9 -13l12 -21l5.5 -11l5.5 -11
q4 -7 10 -23q2 -4 5 -11.5t4 -11.5h-166zM734 478h-1q3 -11 7 -33q6 -32 6 -34q2 -22 3 -34l3 -36h-204v137h186zM673 -20h1q-3 -4 -9 -13t-9 -13q-8 -12 -20 -24q-2 -2 -9 -10t-11 -11q-14 -12 -21 -17q-10 -8 -11 -8l-12 -6q-9 -4 -11 -5t-6 -2t-6 -2v200h166l-9 -24
q-6 -16 -10 -23l-5.5 -11t-5.5 -10q-1 -2 -3.5 -6.5l-4.5 -8t-4 -6.5zM886 545l1 1h-103q-7 23 -16 45q-4 10 -20 42q-10 21 -21 39q-12 20 -24 35l33 -18q16 -8 32 -20q10 -7 30 -23q10 -8 28 -26q6 -6 16 -18q2 -3 8 -9.5t8 -9.5t7 -9.5t7 -9.5q7 -8 14 -19zM827 -7l-1 1
q-18 -18 -28 -26q-20 -16 -30 -23q-16 -12 -32 -20l-33 -18q15 18 24 34q11 18 21 39q16 32 20 42q7 19 16 46h103q-7 -11 -14 -19q-3 -3 -7 -10t-7 -10t-8 -9t-8 -9q-10 -12 -16 -18zM819 341q-1 6 -1 18t-1 18t-2.5 17.5t-1.5 16.5q-1 13 -5 34l-6 33h121l12 -33
l5.5 -19.5t3.5 -14.5q3 -13 7 -34q2 -12 4 -36h-136zM802 136l6 33q4 22 5 33q0 5 1.5 17t2.5 18t1 18t1 18h136q-2 -24 -4 -36q-4 -24 -7 -35l-9 -33l-12 -33h-121z" />
  </font>
</defs>
</svg>
